The Devil's Doorway (2018) RATING 7.8 / 10 QUALITY | Mike Epps | Flores En El Atico BluRayRip AC3 5.1Miniespias Mision crucial HDTV | Trước | terrmanmus42

Red Sparrow 2018 1080p HC HDRip AAC 2.0 x264 [MW]

  • Category Movies
  • Type HD
  • Language English
  • Total size 2.0 GB
  • Uploaded By moviezworldz
  • Downloads 422
  • Last checked 3 months ago
  • Date uploaded 3 months ago
  • Seeders 28
  • Leechers 21

Red Sparrow

MysteryThriller

Prima ballerina Dominika Egorova faces a bleak and uncertain future after she suffers an injury that ends her career. She soon turns to Sparrow School, a secret intelligence service that trains exceptional young people to use their minds and bodies as weapons. Egorova emerges as the most dangerous Sparrow after completing the sadistic training process. As she comes to terms with her new abilities, Dominika meets a CIA agent who tries to convince her that he is the only person she can trust.

Infohash : 200CADA9BF9B9D53C8E61DAF0D237741A94889E6





General
Format : Matroska
Format version : Version 4 / Version 2
File size : 1.99 GiB
Duration : 2 h 15 min
Overall bit rate : 2 099 kb/s

Video
ID : 1
Format : AVC
Format/Info : Advanced Video Codec
Format profile : [email protected]
Format settings : CABAC / 4 Ref Frames
Format settings, CABAC : Yes
Format settings, RefFrames : 4 frames
Codec ID : V_MPEG4/ISO/AVC
Duration : 2 h 15 min
Bit rate : 2 000 kb/s
Width : 1 904 pixels
Height : 800 pixels
Display aspect ratio : 2.40:1
Frame rate mode : Constant
Frame rate : 29.970 (30000/1001) FPS
Color space : YUV
Chroma subsampling : 4:2:0
Bit depth : 8 bits
Scan type : Progressive
Bits/(Pixel*Frame) : 0.044
Stream size : 1.87 GiB (94%)
Writing library : x264 core 155 r2893 b00bcaf
Default : Yes
Forced : No

Audio
ID : 2
Format : AAC
Format/Info : Advanced Audio Codec
Format profile : LC
Codec ID : A_AAC-2
Duration : 2 h 15 min
Bit rate : 128 kb/s
Channel(s) : 2 channels
Channel positions : Front: L R
Sampling rate : 48.0 kHz
Frame rate : 46.875 FPS (1024 SPF)
Compression mode : Lossy
Stream size : 124 MiB (6%)
Language : English
Default : Yes
Forced : No













Files:

Red Sparrow 2018 1080p HC HDRip AAC 2.0 x264 [MW]
  • Red Sparrow 2018 1080p HC HDRip AAC 2.0 x264 [MW].mkv (2.0 GB)

There are currently no comments. Feel free to leave one :)

Code:

  • udp://tracker.pirateparty.gr:6969/announce
  • udp://tracker.opentrackr.org:1337/announce
  • udp://tracker.opentrackr.org:80/announce
  • udp://tracker.vanitycore.co:6969/announce
  • udp://public.popcorn-tracker.org:6969/announce
  • udp://9.rarbg.to:2720/announce
  • udp://9.rarbg.me:2740/announce
  • udp://9.rarbg.com:2790/announce
  • udp://inferno.demonoid.pw:3391/announce
  • udp://tracker.internetwarriors.net:1337/announce
  • udp://ipv4.tracker.harry.lu:80/announce
  • udp://p4p.arenabg.ch:1337/announce
  • http://tracker.vanitycore.co:6969/announce
  • http://public.popcorn-tracker.org:6969/announce
  • udp://tracker.zer0day.to:1337/announce
  • udp://tracker.leechers-paradise.org:6969/announce
  • udp://coppersurfer.tk:6969/announce