Welpentraining mit Martin Rütter
Phim Hot无声的证言 Silent Witness s12e06 中英双字 400p-玄字幕组 mp4
Blue Bloods 8x18

Peter.Rabbit..2018.READ.INFO.720p.WEB-DL.H264.AC3.LLG

  • Category Movies
  • Type HD
  • Language English
  • Total size 894.8 MB
  • Uploaded By LifeLongg
  • Downloads 1563
  • Last checked 22 minutes ago
  • Date uploaded 21 hours ago
  • Seeders 57
  • Leechers 166

Peter Rabbit

Animation

Feature adaptation of Beatrix Potter's classic tale of a rebellious rabbit trying to sneak into a farmer's vegetable garden.

Infohash : 1E91E2DD42BC86FCE0CC8BC54532BD98F63BC8BF





******************************Thumbnail:**********************



******************************Screenshots:********************

Screenshot 1

Screenshot 2

Screenshot 3

Screenshot 4

Screenshot 5

Screenshot 6

Screenshot 7

Screenshot 8

Screenshot 9

Screenshot 0

**************************************************************

Note :Clear Cam audio

Complete name : Peter.Rabbit..2018.READ.INFO.720p.WEB-DL.H264.AC3.LLG.mp4
Format : MPEG-4
Format profile : Base Media
Codec ID : isom (isom/iso2/avc1/mp41)
File size : 884 MiB
Duration : 1 h 34 min
Overall bit rate : 1 306 kb/s
Writing application : Lavf57.56.101

Video
ID : 1
Format : AVC
Format/Info : Advanced Video Codec
Format profile : [email protected]
Format settings : CABAC / 4 Ref Frames
Format settings, CABAC : Yes
Format settings, RefFrames : 4 frames
Codec ID : avc1
Codec ID/Info : Advanced Video Coding
Duration : 1 h 34 min
Bit rate : 1 200 kb/s
Width : 1 280 pixels
Height : 530 pixels
Display aspect ratio : 2.40:1
Frame rate mode : Constant
Frame rate : 29.970 (29970/1000) FPS
Color space : YUV
Chroma subsampling : 4:2:0
Bit depth : 8 bits
Scan type : Progressive
Bits/(Pixel*Frame) : 0.059
Stream size : 794 MiB (90%)

Audio
ID : 2
Format : AC-3
Format/Info : Audio Coding 3
Codec ID : ac-3
Duration : 1 h 34 min
Bit rate mode : Constant
Bit rate : 128 kb/s
Channel(s) : 2 channels
Channel positions : Front: L R
Sampling rate : 48.0 kHz
Frame rate : 31.250 FPS (1536 SPF)
Bit depth : 16 bits
Compression mode : Lossy
Stream size : 86.6 MiB (10%)
Language : English
Service kind : Complete Main
Default : Yes
Alternate group : 1

Files:

Peter.Rabbit..2018.READ.INFO.720p.WEB-DL.H264.AC3.LLG
  • Sample.ts (11.2 MB)
  • Peter.Rabbit..2018.READ.INFO.720p.WEB-DL.H264.AC3.LLG.mp4 (883.6 MB)

There are currently no comments. Feel free to leave one :)

Code:

  • udp://tracker.openbittorrent.com:80/announce
  • udp://tracker.opentrackr.org:1337/announce