Gary Clark Jr. & Junkie XL Come Together | Computer Peripherals | Harry and Meghan-The Royal Wedding 2018 XviD-AFG"Strike Back" [S04E09] HDTV.x264-2HD | Anak Pelaku Bom Bunuh Diri Surabaya di Mata Sahabat | One Day at a Time

102 Not Out 2018 Hindi 720p PreDVDRip x264 [MW]

  • Category Movies
  • Type Bollywood
  • Language Hindi
  • Total size 1.1 GB
  • Uploaded By moviezworldz
  • Downloads 7
  • Last checked 3 minutes ago
  • Date uploaded 3 minutes ago
  • Seeders 0
  • Leechers 0

Infohash : 66A93539B106BDB3A72B6D7D1875946E5DE745DA





General
Format : Matroska
Format version : Version 4 / Version 2
File size : 1.11 GiB
Duration : 1 h 37 min
Overall bit rate : 1 632 kb/s

Video
ID : 1
Format : AVC
Format/Info : Advanced Video Codec
Format profile : [email protected]
Format settings : CABAC / 4 Ref Frames
Format settings, CABAC : Yes
Format settings, RefFrames : 4 frames
Codec ID : V_MPEG4/ISO/AVC
Duration : 1 h 37 min
Bit rate : 1 500 kb/s
Width : 1 280 pixels
Height : 540 pixels
Display aspect ratio : 2.40:1
Frame rate mode : Constant
Frame rate : 25.000 FPS
Color space : YUV
Chroma subsampling : 4:2:0
Bit depth : 8 bits
Scan type : Progressive
Bits/(Pixel*Frame) : 0.087
Stream size : 1.03 GiB (92%)
Writing library : x264 core 155 r2893 b00bcaf
Default : Yes
Forced : No

Audio
ID : 2
Format : AAC
Format/Info : Advanced Audio Codec
Format profile : LC
Codec ID : A_AAC-2
Duration : 1 h 37 min
Bit rate : 128 kb/s
Channel(s) : 2 channels
Channel positions : Front: L R
Sampling rate : 48.0 kHz
Frame rate : 46.875 FPS (1024 SPF)
Compression mode : Lossy
Stream size : 89.5 MiB (8%)
Language : Hindi
Default : Yes
Forced : No













Files:

102 Not Out 2018 Hindi 720p PreDVDRip x264 [MW]
  • 102 Not Out 2018 Hindi 720p PreDVDRip x264 [MW].mkv (1.1 GB)

There are currently no comments. Feel free to leave one :)

Code:

  • udp://tracker.pirateparty.gr:6969/announce
  • udp://tracker.opentrackr.org:1337/announce
  • udp://tracker.vanitycore.co:6969/announce
  • udp://public.popcorn-tracker.org:6969/announce
  • udp://9.rarbg.to:2740/announce
  • udp://9.rarbg.me:2710/announce
  • udp://9.rarbg.com:2770/announce
  • udp://inferno.demonoid.pw:3391/announce
  • udp://tracker.internetwarriors.net:1337/announce
  • udp://ipv4.tracker.harry.lu:80/announce
  • http://torrentsmd.com:8080/announce
  • udp://tracker.zer0day.to:1337/announce
  • udp://tracker.leechers-paradise.org:6969/announce
  • udp://coppersurfer.tk:6969/announce