O Sthree Repu Raa 2016 Dual Audio Hindi 720p HDRip 1.2GB | Play Movie | [share_ebook] Leslie Neubecker, "Strategic Competition in Oligopolies with Fluctuating Demand"UNDERTALE Soundtrack | Dragon Ball Z: Bardock the Father of Goku (1990) | 100.Degrees.In.The.Shade.Limited.Series.2.of.4.May.1992.SCAN.Classic.Comic.eBook-iNTENSiTY

Malibu Shark Attack (2009) 720p - BDRip - x264 [Hindi + Tamil + E...

  • Category Movies
  • Type HD
  • Language English
  • Total size 1.0 GB
  • Uploaded By MovCr
  • Downloads 17
  • Last checked 58 minutes ago
  • Date uploaded 2 hours ago
  • Seeders 1
  • Leechers 6

Malibu Shark Attack

HorrorForeign

An underwater earthquake generates a tsunami that strikes Malibu, bringing a hunting pack of prehistoric-looking goblin sharks to the surface. Although the beach is evacuated before the big wave strikes, a group of lifeguards and a crew of construction workers are stranded in the high water and have to fight the sharks to get to dry land.

Infohash : F431F58AF8F4CCB60409C93B39AB290DF717050C

http://movcr.com

Malibu Shark Attack (2009) 720p - BDRip - x264 [Hindi + Tamil + Eng] - 1GB - MovCr


Video
ID                          : 1
Format                      : AVC
Format/Info                 : Advanced Video Codec
Format profile              : [email protected]
Format settings, CABAC      : Yes
Format settings, ReFrames   : 4 frames
Codec ID                    : V_MPEG4/ISO/AVC
Duration                    : 1 h 30 min
Bit rate                    : 1 329 kb/s
Width                       : 1 280 pixels
Height                      : 720 pixels
Display aspect ratio        : 16:9
Frame rate mode             : Constant
Frame rate                  : 23.976 (24000/1001) FPS
Color space                 : YUV
Chroma subsampling          : 4:2:0
Bit depth                   : 8 bits
Scan type                   : Progressive
Bits/(Pixel*Frame)          : 0.060
Stream size                 : 857 MiB (80%)
Title                       : www.MovCr.com
Writing library             : x264 core 148 r2744 b97ae06
Encoding settings           : cabac=1 / ref=3 / deblock=1:0:0 / analyse=0x3:0x113 / me=hex / subme=7 / psy=1 / psy_rd=1.00:0.00 / mixed_ref=1 / me_range=16 / chroma_me=1 / trellis=1 / 8x8dct=1 / cqm=0 / deadzone=21,11 / fast_pskip=1 / chroma_qp_offset=-2 / threads=22 / lookahead_threads=3 / sliced_threads=0 / nr=0 / decimate=1 / interlaced=0 / bluray_compat=0 / constrained_intra=0 / bframes=3 / b_pyramid=2 / b_adapt=1 / b_bias=0 / direct=1 / weightb=1 / open_gop=0 / weightp=2 / keyint=240 / keyint_min=23 / scenecut=40 / intra_refresh=0 / rc_lookahead=40 / rc=2pass / mbtree=1 / bitrate=1329 / ratetol=1.0 / qcomp=0.60 / qpmin=0 / qpmax=69 / qpstep=4 / cplxblur=20.0 / qblur=0.5 / ip_ratio=1.40 / aq=1:1.00
Default                     : Yes
Forced                      : No

Audio #1
ID                          : 2
Format                      : MPEG Audio
Format version              : Version 1
Format profile              : Layer 3
Mode                        : Joint stereo
Mode extension              : MS Stereo
Codec ID                    : A_MPEG/L3
Codec ID/Hint               : MP3
Duration                    : 1 h 30 min
Bit rate mode               : Constant
Bit rate                    : 96.0 kb/s
Channel(s)                  : 2 channels
Sampling rate               : 44.1 kHz
Frame rate                  : 38.281 FPS (1152 spf)
Compression mode            : Lossy
Stream size                 : 61.9 MiB (6%)
Title                       : www.MovCr.com
Language                    : Hindi
Default                     : Yes
Forced                      : No

Audio #2
ID                          : 3
Format                      : MPEG Audio
Format version              : Version 1
Format profile              : Layer 3
Mode                        : Joint stereo
Codec ID                    : A_MPEG/L3
Codec ID/Hint               : MP3
Duration                    : 1 h 30 min
Bit rate mode               : Constant
Bit rate                    : 128 kb/s
Channel(s)                  : 2 channels
Sampling rate               : 44.1 kHz
Frame rate                  : 38.281 FPS (1152 spf)
Compression mode            : Lossy
Stream size                 : 82.6 MiB (8%)
Title                       : www.MovCr.com
Writing library             : LAME3.99.5
Language                    : Tamil
Default                     : No
Forced                      : No

Audio #3
ID                          : 4
Format                      : MPEG Audio
Format version              : Version 1
Format profile              : Layer 3
Mode                        : Joint stereo
Codec ID                    : A_MPEG/L3
Codec ID/Hint               : MP3
Duration                    : 1 h 30 min
Bit rate mode               : Constant
Bit rate                    : 96.0 kb/s
Channel(s)                  : 2 channels
Sampling rate               : 48.0 kHz
Frame rate                  : 41.667 FPS (1152 spf)
Compression mode            : Lossy
Stream size                 : 61.9 MiB (6%)
Title                       : www.MovCr.com
Writing library             : LAME3.99.5
Language                    : English
Default                     : No
Forced                      : No

Files:

  • [MovCr.com] - Malibu Shark Attack (2009) 720p - BDRip - x264 [Hindi + Tamil + Eng] - 1GB - MovCr.mkv (1.0 GB)

There are currently no comments. Feel free to leave one :)

Code:

  • udp://tracker.coppersurfer.tk:6969/announce
  • udp://tracker.ilibr.org:6969/announce
  • udp://tracker.ilibr.org:80/announce
  • udp://tracker.opentrackr.org:1337/announce
  • udp://zer0day.to:1337/announce
  • udp://tracker.zer0day.to:1337/announce
  • udp://p4p.arenabg.com:1337/announce
  • udp://p4p.arenabg.ch:1337/announce
  • udp://tracker.leechers-paradise.org:6969/announce
  • udp://explodie.org:6969/announce
  • udp://9.rarbg.to:2710/announce
  • udp://eddie4.nl:6969/announce
  • udp://9.rarbg.to:2770/announce
  • UDP://TRACKER.LEECHERS-PARADISE.ORG:6969/ANNOUNCE
  • UDP://TRACKER.COPPERSURFER.TK:6969/ANNOUNCE
  • UDP://TRACKER.OPENTRACKR.ORG:1337/ANNOUNCE
  • UDP://TRACKER.ZER0DAY.TO:1337/ANNOUNCE
  • UDP://EDDIE4.NL:6969/ANNOUNCE
  • udp://tracker.leechers-paradise.org:6969/announce
  • udp://eddie4.nl:6969/announce
  • udp://tracker.opentrackr.org:1337/announce
  • udp://tracker.leechers-paradise.org:6969/announce
  • udp://p4p.arenabg.com:1337/announce
  • udp://tracker.openbittorrent.com:80/announce