White Famous | Механизм / O Mecanismo [01х01-04 из 08] (2018) WEBRip 1080p | Jaskier 15 minutes | Madagascar 2 (2008) TC.XviD-CO...Download | Shelley Longworth | OpenLoad

Stratton(2018)Mp-4 Dvd Rip[DaScubaDude]

  • Category Movies
  • Type Mp4
  • Language English
  • Total size 983.5 MB
  • Uploaded By dascubadude
  • Downloads 79
  • Last checked 57 minutes ago
  • Date uploaded 8 hours ago
  • Seeders 1
  • Leechers 40

Infohash : 1ED964E5B2F707D2994B8B7AEE94E6C918AC6F24


[youtube]GgQNPTif_U4[/youtube]
Stratton
R | 1h 35min | Action, Thriller | 5 January 2018 (USA)

General
Complete name : Stratton\STRATTON_Title2.mp4
Format : MPEG-4
Format profile : Base Media
Codec ID : isom (isom/iso2/avc1/mp41)
File size : 982 MiB
Duration : 1 h 34 min
Overall bit rate : 1 454 kb/s
Movie name : STRATTON_Title2
Writing application : Lavf54.6.100

Video
ID : 1
Format : AVC
Format/Info : Advanced Video Codec
Format profile : [email protected]
Format settings : 6 Ref Frames
Format settings, CABAC : No
Format settings, RefFrames : 6 frames
Format settings, GOP : M=1, N=60
Codec ID : avc1
Codec ID/Info : Advanced Video Coding
Duration : 1 h 34 min
Bit rate : 1 196 kb/s
Width : 720 pixels
Height : 404 pixels
Display aspect ratio : 16:9
Frame rate mode : Constant
Frame rate : 29.970 (30000/1001) FPS
Color space : YUV
Chroma subsampling : 4:2:0
Bit depth : 8 bits
Scan type : Progressive
Bits/(Pixel*Frame) : 0.137
Stream size : 808 MiB (82%)

Audio
ID : 2
Format : AAC
Format/Info : Advanced Audio Codec
Format profile : LC
Codec ID : mp4a-40-2
Duration : 1 h 34 min
Bit rate mode : Constant
Bit rate : 252 kb/s
Channel(s) : 2 channels
Channel(s)_Original : 6 channels
Channel positions : Front: L C R, Side: L R, LFE
Sampling rate : 44.1 kHz
Frame rate : 43.066 FPS (1024 SPF)
Compression mode : Lossy
Stream size : 170 MiB (17%)
Default : Yes
Alternate group : 1

Files:

Stratton
  • screenshot785.jpg (29.5 KB)
  • screenshot786.jpg (29.7 KB)
  • screenshot781.jpg (39.1 KB)
  • screenshot784.jpg (51.0 KB)
  • Read me.rtf (1.3 MB)
  • STRATTON_Title2.mp4 (982.1 MB)

There are currently no comments. Feel free to leave one :)

Code:

  • udp://tracker.openbittorrent.com:80/announce
  • UDP://TRACKER.LEECHERS-PARADISE.ORG:6969/ANNOUNCE
  • UDP://TRACKER.COPPERSURFER.TK:6969/ANNOUNCE
  • UDP://TRACKER.OPENTRACKR.ORG:1337/ANNOUNCE
  • UDP://TRACKER.ZER0DAY.TO:1337/ANNOUNCE
  • UDP://EDDIE4.NL:6969/ANNOUNCE
  • udp://tracker.opentrackr.org:1337/announce
  • udp://tracker.coppersurfer.tk:6969/announce
  • udp://9.rarbg.to:2710/announce