Chapter 03 - Chapter 03 | CASEY - SERIBU IMPIAN | Mark Williams140412 무한도전.스피드 레이서 3탄.HDTV.1080i.SkinniSoul.tp | The Bugs Bunny/road-runner Movie | Steve Jobs

Black Panther 2018 720p BluRay AAC ZEE5

  • Category Movies
  • Type h.264/x264
  • Language English
  • Total size 943.2 MB
  • Uploaded By abuhamza420
  • Downloads 63
  • Last checked 7 minutes ago
  • Date uploaded 2 hours ago
  • Seeders 3
  • Leechers 12

Black Panther

ActionAdventureDramaScience FictionThriller

T'Challa, the new ruler of the advanced kingdom of Wakanda, must defend his land from being torn apart by enemies from outside and inside the country.

Infohash : D27538677322AE5364C2B1C4FE1D0098B70BF49B



Black Panther 2018 720p BluRay AAC ZEE5


More Info.. Go Zeee5.Info

Join Us Now




[center]




Format : Matroska
Format version : Version 4 / Version 2
File size : 943 MiB
Duration : 2 h 14 min
Overall bit rate : 980 kb/s
Encoded date : UTC 2018-05-16 10:30:38
Writing application : mkvmerge v23.0.0 ('The Bride Said No') 32-bit
Writing library : libebml v1.3.6 + libmatroska v1.4.9

Video
ID : 1
Format : AVC
Format/Info : Advanced Video Codec
Format profile : [email protected]
Format settings : CABAC / 8 Ref Frames
Format settings, CABAC : Yes
Format settings, RefFrames : 8 frames
Codec ID : V_MPEG4/ISO/AVC
Duration : 2 h 14 min
Bit rate : 850 kb/s
Width : 1 280 pixels
Height : 720 pixels
Display aspect ratio : 16:9
Frame rate mode : Constant
Frame rate : 23.976 (24000/1001) FPS
Color space : YUV
Chroma subsampling : 4:2:0
Bit depth : 8 bits
Scan type : Progressive
Bits/(Pixel*Frame) : 0.038
Stream size : 818 MiB (87%)
Writing library : x264 core 155 r2901 7d0ff22
Default : Yes
Forced : No
Color range : Limited
Color primaries : Generic film
Transfer characteristics : BT.709
Matrix coefficients : BT.709

Audio
ID : 2
Format : AAC
Format/Info : Advanced Audio Codec
Format profile : LC
Codec ID : A_AAC-2
Duration : 2 h 14 min
Bit rate : 128 kb/s
Channel(s) : 2 channels
Channel positions : Front: L R
Sampling rate : 48.0 kHz
Frame rate : 46.875 FPS (1024 SPF)
Compression mode : Lossy
Delay relative to video : 9 ms
Stream size : 123 MiB (13%)
Language : English
Default : Yes
Forced : No

Text
ID : 3
Format : UTF-8
Codec ID : S_TEXT/UTF8
Codec ID/Info : UTF-8 Plain Text
Duration : 55 min 14 s
Bit rate : 1 b/s
Count of elements : 8
Stream size : 632 Bytes (0%)
Default : Yes
Forced : No




Black Panther 2018 720p BluRay AAC ZEE5



Files:

Black Panther 2018 720p BluRay AAC ZEE5
  • Zee5.Info - Black Panther 2018 720p BluRay AAC.mkv (943.2 MB)

There are currently no comments. Feel free to leave one :)

Code:

  • UDP://TRACKER.LEECHERS-PARADISE.ORG:6969/ANNOUNCE
  • UDP://TRACKER.COPPERSURFER.TK:6969/ANNOUNCE
  • UDP://TRACKER.OPENTRACKR.ORG:1337/ANNOUNCE
  • udp://9.rarbg.to:2710/announce
  • UDP://EDDIE4.NL:6969/ANNOUNCE
  • udp://inferno.demonoid.pw:3391/announce