EMERGENCY 20 (PC) | Alone Together | Aviso sobre las imágenes caídas 12 0Resurrection | OpenLoad | Independence Day Resurgence (2016) HDTS x264 [Dual-Audio] [English + Hindi (Cam Cleaned)] - Downloadhub

Lucifer (2015) Season 3 S03 (1080p AMZN WEB-DL x265 HEVC 10bit AA...

  • Category TV
  • Type HEVC/x265
  • Language English
  • Total size 15.7 GB
  • Uploaded By Vyndros
  • Downloads 428
  • Last checked 2 months ago
  • Date uploaded 3 months ago
  • Seeders 9
  • Leechers 6

Infohash : AF5C30EEDAD9E6CE50869810B4ABAAE70072075A








Media Information

Code:

General
Format : Matroska
Format version : Version 4 / Version 2
File size : 636 MiB
Duration : 43 min 40 s
Overall bit rate : 2 038 kb/s
Encoded date : UTC 2018-05-16 02:46:25
Writing application : mkvmerge v20.0.0 ('I Am The Sun') 64-bit
Writing library : libebml v1.3.5 + libmatroska v1.4.8
Writing frontend : StaxRip v1.7.0.6

Video
ID : 1
Format : HEVC
Format/Info : High Efficiency Video Coding
Format profile : Main [email protected]@Main
Codec ID : V_MPEGH/ISO/HEVC
Duration : 43 min 39 s
Bit rate : 1 587 kb/s
Width : 1 920 pixels
Height : 1 080 pixels
Display aspect ratio : 16:9
Frame rate mode : Constant
Frame rate : 23.976 (24000/1001) FPS
Color space : YUV
Chroma subsampling : 4:2:0
Bit depth : 10 bits
Bits/(Pixel*Frame) : 0.032
Stream size : 496 MiB (78%)
Writing library : x265 2.7+346-69aafa6d70ad:[Windows][GCC 7.3.0][64 bit] 10bit
Encoding settings : cpuid=1111039 / frame-threads=3 / numa-pools=12 / wpp / no-pmode / no-pme / no-psnr / ssim / log-level=2 / input-csp=1 / input-res=1920x1080 / interlace=0 / total-frames=62817 / level-idc=0 / high-tier=1 / uhd-bd=0 / ref=3 / no-allow-non-conformance / no-repeat-headers / annexb / no-aud / no-hrd / info / hash=0 / no-temporal-layers / open-gop / min-keyint=23 / keyint=250 / gop-lookahead=0 / bframes=8 / b-adapt=2 / b-pyramid / bframe-bias=0 / rc-lookahead=50 / lookahead-slices=6 / scenecut=40 / radl=0 / no-intra-refresh / ctu=64 / min-cu-size=8 / no-rect / no-amp / max-tu-size=32 / tu-inter-depth=1 / tu-intra-depth=1 / limit-tu=0 / rdoq-level=0 / dynamic-rd=0.00 / no-ssim-rd / signhide / no-tskip / nr-intra=0 / nr-inter=0 / no-constrained-intra / no-strong-intra-smoothing / max-merge=3 / limit-refs=3 / no-limit-modes / me=3 / subme=3 / merange=57 / temporal-mvp / weightp / no-weightb / no-analyze-src-pics / deblock=0:0 / sao / no-sao-non-deblock / rd=3 / no-early-skip / no-rskip / no-fast-intra / no-tskip-fast / no-cu-lossless / no-b-intra / no-splitrd-skip / rdpenalty=0 / psy-rd=2.00 / psy-rdoq=0.00 / no-rd-refine / no-lossless / cbqpoffs=0 / crqpoffs=0 / rc=crf / crf=22.0 / qcomp=0.60 / qpstep=4 / stats-write=0 / stats-read=0 / ipratio=1.40 / pbratio=1.30 / aq-mode=3 / aq-strength=0.80 / cutree / zone-count=0 / no-strict-cbr / qg-size=32 / no-rc-grain / qpmax=69 / qpmin=0 / no-const-vbv / sar=0 / overscan=0 / videoformat=5 / range=0 / colorprim=2 / transfer=2 / colormatrix=2 / chromaloc=0 / display-window=0 / max-cll=0,0 / min-luma=0 / max-luma=1023 / log2-max-poc-lsb=8 / vui-timing-info / vui-hrd-info / slices=1 / no-opt-qp-pps / no-opt-ref-list-length-pps / no-multi-pass-opt-rps / scenecut-bias=0.05 / no-opt-cu-delta-qp / no-aq-motion / no-hdr / no-hdr-opt / no-dhdr10-opt / no-idr-recovery-sei / analysis-reuse-level=5 / scale-factor=0 / refine-intra=0 / refine-inter=0 / refine-mv=0 / no-limit-sao / ctu-info=0 / no-lowpass-dct / refine-mv-type=0 / copy-pic=1 / max-ausize-factor=1.0 / no-dynamic-refine / no-single-sei
Default : Yes
Forced : No

Audio
ID : 2
Format : AAC
Format/Info : Advanced Audio Codec
Format profile : LC
Codec ID : A_AAC
Duration : 43 min 40 s
Bit rate : 448 kb/s
Channel(s) : 6 channels
Channel positions : Front: L C R, Side: L R, LFE
Sampling rate : 48.0 kHz
Frame rate : 46.875 FPS (1024 spf)
Compression mode : Lossy
Stream size : 140 MiB (22%)
Language : English
Default : Yes
Forced : Yes

Subtitle #1
ID : 3
Format : UTF-8
Codec ID : S_TEXT/UTF8
Codec ID/Info : UTF-8 Plain Text
Duration : 42 min 55 s
Bit rate : 77 b/s
Count of elements : 882
Stream size : 24.5 KiB (0%)
Language : English
Default : No
Forced : No

Subtitle #2
ID : 4
Format : UTF-8
Codec ID : S_TEXT/UTF8
Codec ID/Info : UTF-8 Plain Text
Duration : 42 min 55 s
Bit rate : 80 b/s
Count of elements : 941
Stream size : 25.4 KiB (0%)
Language : English
Default : No
Forced : No

Menu
00:00:00.000 : en:Previously On
00:00:53.000 : en:Everyone tries to cope at the crime scene
00:04:47.000 : en:Pierce turns to old contacts
00:06:53.000 : en:Dan convinces Chloe and Lucifer of his findings
00:09:43.000 : en:Title Sequence
00:09:50.000 : en:Chloe, Lucifer, and Dan make a plan
00:12:14.000 : en:Chloe, Lucifer, and Dan talk to a suspect
00:14:29.000 : en:Maze makes it to Linda
00:15:12.000 : en:Dan acts on a hunch
00:18:04.000 : en:Dan asks Ella for a favor
00:20:59.000 : en:Lucifer confronts Pierce
00:24:43.000 : en:Chloe calls Pierce
00:27:31.000 : en:Linda thanks Maze
00:29:48.000 : en:Ella's faith waivers
00:33:29.000 : en:Lucifer and Chloe look for John's sister
00:35:39.000 : en:Chloe tries to protect Lucifer
00:38:31.000 : en:Vengeance
00:40:01.000 : en:A devil of my word
00:43:02.000 : en:End Credits



Source Information

Code:

Release:
Amazon WEB-DL

Files:

Lucifer (2015) Season 3 S03 (1080p AMZN WEB-DL x265 HEVC 10bit AAC 5.1 Vyndros)
  • Lucifer.S03E01.They're.Back.Again,.Aren't.They.1080p.10bit.AMZN.WEB-DL.AAC5.1.HEVC-Vyndros.mkv (633.7 MB)
  • Lucifer.S03E02.The.One.With.The.Baby.Carrot.1080p.10bit.AMZN.WEB-DL.AAC5.1.HEVC-Vyndros.mkv (519.9 MB)
  • Lucifer.S03E03.Mr.&.Mrs.Mazikeen.Smith.1080p.10bit.AMZN.WEB-DL.AAC5.1.HEVC-Vyndros.mkv (621.9 MB)
  • Lucifer.S03E04.What.Would.Lucifer.Do.1080p.10bit.AMZN.WEB-DL.AAC5.1.HEVC-Vyndros.mkv (662.5 MB)
  • Lucifer.S03E05.Welcome.Back,.Charlotte.Richards.1080p.10bit.AMZN.WEB-DL.AAC5.1.HEVC-Vyndros.mkv (589.2 MB)
  • Lucifer.S03E06.Vegas.with.Some.Radish.1080p.10bit.AMZN.WEB-DL.AAC5.1.HEVC-Vyndros.mkv (828.3 MB)
  • Lucifer.S03E07.Off.the.Record.1080p.10bit.AMZN.WEB-DL.AAC5.1.HEVC-Vyndros.mkv (662.4 MB)
  • Lucifer.S03E08.Chloe.Does.Lucifer.1080p.10bit.AMZN.WEB-DL.AAC5.1.HEVC-Vyndros.mkv (749.5 MB)
  • Lucifer.S03E09.The.Sinnerman.1080p.AMZN.WEB-DL.AAC5.1.HEVC-Vyndros.mkv (524.7 MB)
  • Lucifer.S03E10.The.Sin.Bin.1080p.10bit.AMZN.WEB-DL.AAC5.1.HEVC-Vyndros.mkv (748.2 MB)
  • Lucifer.S03E11.City.of.Angels.1080p.10bit.AMZN.WEB-DL.AAC5.1.HEVC-Vyndros.mkv (848.5 MB)
  • Lucifer.S03E12.All.About.Her.1080p.10bit.AMZN.WEB-DL.AAC5.1.HEVC-Vyndros.mkv (758.1 MB)
  • Lucifer.S03E13.Till.Death.Do.Us.Part.1080p.10bit.AMZN.WEB-DL.AAC5.1.HEVC-Vyndros.mkv (757.6 MB)
  • Lucifer.S03E14.My.Brother's.Keeper.1080p.10bit.AMZN.WEB-DL.AAC5.1.HEVC-Vyndros.mkv (627.3 MB)
  • Lucifer.S03E15.High.School.Poppycock.1080p.10bit.AMZN.WEB-DL.AAC5.1.HEVC-Vyndros.mkv (659.5 MB)
  • Lucifer.S03E16.Infernal.Guinea.Pig.1080p.10bit.AMZN.WEB-DL.AAC5.1.HEVC-Vyndros.mkv (650.0 MB)
  • Lucifer.S03E17.Let.Pinhead.Sing!.1080p.10bit.AMZN.WEB-DL.AAC5.1.HEVC-Vyndros.mkv (704.4 MB)
  • Lucifer.S03E18.The.Last.Heartbreak.1080p.10bit.AMZN.WEB-DL.AAC5.1.HEVC-Vyndros.mkv (586.2 MB)
  • Lucifer.S03E19.Orange.Is.the.New.Maze.1080p.10bit.AMZN.WEB-DL.AAC5.1.HEVC-Vyndros.mkv (622.4 MB)
  • Lucifer.S03E20.The.Angel.of.San.Bernardino.1080p.10bit.AMZN.WEB-DL.AAC5.1.HEVC-Vyndros.mkv (703.7 MB)
  • Lucifer.S03E21.Anything.Pierce.Can.Do.I.Can.Do.Better.1080p.10bit.AMZN.WEB-DL.AAC5.1.HEVC-Vyndros.mkv (682.8 MB)
  • Lucifer.S03E22.All.Hands.on.Decker.1080p.10bit.AMZN.WEB-DL.AAC5.1.HEVC-Vyndros.mkv (723.1 MB)
  • Lucifer.S03E23.Quintessential.Deckerstar.1080p.10bit.AMZN.WEB-DL.AAC5.1.HEVC-Vyndros.mkv (606.1 MB)
  • Lucifer.S03E24.A.Devil.of.My.Word.1080p.10bit.AMZN.WEB-DL.AAC5.1.HEVC-Vyndros.mkv (636.5 MB)

Comments

Code:

  • udp://tracker.coppersurfer.tk:6969/announce
  • udp://tracker.zer0day.to:1337/announce
  • udp://tracker.opentrackr.org:1337/announce
  • udp://tracker.torrent.eu.org:451/announce
  • udp://tracker.ilibr.org:6969/announce
  • udp://tracker.leechers-paradise.org:6969/announce
  • udp://p4p.arenabg.com:1337/announce
  • udp://tracker.internetwarriors.net:1337/announce