Watch movie | Final Score hd 1080p | 7 Day Mental Diet ChallengeJames Corden 2018.03.20 Dakota Fanning | Barney Artist - Apologies | Spuk unterm Riesenrad (0)

18+.Future.World.2018.720p.WEB-DL.DD5.1.H264.LLG

  • Category Movies
  • Type HD
  • Language English
  • Total size 1.1 GB
  • Uploaded By LifeLongg
  • Downloads 731
  • Last checked 2 months ago
  • Date uploaded 2 months ago
  • Seeders 8
  • Leechers 0

Infohash : C55F43A5DEEB8D4AD1DC6E05AC313A6EE08B1E27

******************************Thumbnail:**********************



******************************Screenshots:********************

Screenshot 1

Screenshot 2

Screenshot 3

Screenshot 4

Screenshot 5

Screenshot 6

Screenshot 7

Screenshot 8

Screenshot 9

Screenshot 0

**************************************************************

Complete name : 18+.Future.World.2018.720p.WEB-DL.DD5.1.H264.LLG.mp4
Format : MPEG-4
Format profile : Base Media
Codec ID : isom (isom/iso2/avc1/mp41)
File size : 1.07 GiB
Duration : 1 h 28 min
Overall bit rate : 1 735 kb/s
Writing application : Lavf57.56.101

Video
ID : 1
Format : AVC
Format/Info : Advanced Video Codec
Format profile : [email protected]
Format settings : CABAC / 4 Ref Frames
Format settings, CABAC : Yes
Format settings, RefFrames : 4 frames
Codec ID : avc1
Codec ID/Info : Advanced Video Coding
Duration : 1 h 28 min
Bit rate : 1 500 kb/s
Width : 1 280 pixels
Height : 530 pixels
Display aspect ratio : 2.40:1
Frame rate mode : Constant
Frame rate : 23.976 (23976/1000) FPS
Color space : YUV
Chroma subsampling : 4:2:0
Bit depth : 8 bits
Scan type : Progressive
Bits/(Pixel*Frame) : 0.092
Stream size : 929 MiB (85%)
Menus : 3

Audio
ID : 2
Format : AC-3
Format/Info : Audio Coding 3
Codec ID : ac-3
Duration : 1 h 28 min
Bit rate mode : Constant
Bit rate : 256 kb/s
Channel(s) : 6 channels
Channel positions : Front: L C R, Side: L R, LFE
Sampling rate : 48.0 kHz
Frame rate : 31.250 FPS (1536 SPF)
Bit depth : 16 bits
Compression mode : Lossy
Stream size : 161 MiB (15%)
Language : English
Service kind : Complete Main
Default : Yes
Alternate group : 1

Files:

18+.Future.World.2018.720p.WEB-DL.DD5.1.H264.LLG
  • Sample.ts (13.3 MB)
  • 18+.Future.World.2018.720p.WEB-DL.DD5.1.H264.LLG.mp4 (1.1 GB)

There are currently no comments. Feel free to leave one :)

Code:

  • udp://tracker.openbittorrent.com:80/announce
  • udp://tracker.opentrackr.org:1337/announce