Kung Fu Panda | 10x10.2018.BRRip.XviD.AC3-EVO[TGx] | Winchester La casa que constru.. BluRay MicroHDFear the Walking Dead | Rise of Venice Gold Edition | Rishta.com TV Series [2010] S01 _ Netflix 480p _ Web_dl [All Episode –

Raid (2018) Hindi 720p Untouched True HDTV 720p x264 AAC - 1.4GB ...

  • Category Movies
  • Type Bollywood
  • Language Hindi
  • Total size 1.4 GB
  • Uploaded By ictv
  • Downloads 3704
  • Last checked 2 months ago
  • Date uploaded 2 months ago
  • Seeders 34
  • Leechers 9

Raid

CrimeDramaThriller

Set in the 80s in Uttar Pradesh, India, Raid is based on the true story of one of the most high profile raids the country has ever known. Amay Patnaik (Ajay Devgn), an upright and no-nonsense Income Tax officer has already been transferred 49 times in the past seven years owing to his idealistic and courageous disposition to uncover tax frauds, hitting hard the pockets of many a big shot. When Patnaik is assigned the case of Tauji, a highly influential and feared man in Uttar Pradesh, little does he know that his unerring determination to bring Tauji to justice would culminate in the longest and most challenging raid of his career as also the history of the Income Tax Department of India. Would Amay succeed in the face of an increasingly stubborn and belligerent Tauji forms the crux of the story.

Infohash : 33B6A0279E8F84AF4F94820CD8E9EC360B35F6FB

Visit Our Site For More Exclusives www.movcr.com

http://www.imdb.com/title/tt7363076/



General
Unique ID : 18067870764505128900742883967893896744 (0xD97BECE2FF04AFF6DA5F6EAAC35FE28)
Complete name : [www.MovCr.com] Raid (2018) Hindi 720p Untouched True HDTV 720p x264 AAC - 1.4GB [MovCr]\www.MovCr.com - Raid (2018) Hindi 720p Untouched True HDTV 720p x264 AAC - 1.4GB [MovCr].mkv
Format : Matroska
Format version : Version 4 / Version 2
File size : 1.39 GiB
Duration : 1 h 52 min
Overall bit rate : 1 763 kb/s
Movie name : www.MovCr.com
Encoded date : UTC 2018-05-27 10:57:53
Writing application : mkvmerge v23.0.0 ('The Bride Said No') 64-bit
Writing library : libebml v1.3.6 + libmatroska v1.4.9

Video
ID : 1
Format : AVC
Format/Info : Advanced Video Codec
Format profile : [email protected]
Format settings, CABAC : Yes
Format settings, ReFrames : 3 frames
Codec ID : V_MPEG4/ISO/AVC
Duration : 1 h 52 min
Bit rate : 1 632 kb/s
Width : 1 280 pixels
Height : 720 pixels
Display aspect ratio : 16:9
Frame rate mode : Constant
Frame rate : 25.000 FPS
Color space : YUV
Chroma subsampling : 4:2:0
Bit depth : 8 bits
Scan type : Progressive
Bits/(Pixel*Frame) : 0.071
Stream size : 1.29 GiB (93%)
Title : www.MovCr.com
Default : Yes
Forced : No

Audio
ID : 2
Format : AAC
Format/Info : Advanced Audio Codec
Format profile : LC
Codec ID : A_AAC
Duration : 1 h 52 min
Bit rate : 129 kb/s
Channel(s) : 2 channels
Channel positions : Front: L R
Sampling rate : 44.1 kHz
Frame rate : 43.066 FPS (1024 spf)
Compression mode : Lossy
Delay relative to video : -80 ms
Stream size : 104 MiB (7%)
Title : www.MovCr.com
Language : Hindi
Default : Yes
Forced : No













Files:

[www.MovCr.com] Raid (2018) Hindi 720p Untouched True HDTV 720p x264 AAC - 1.4GB [MovCr]
  • www.MovCr.com - Raid (2018) Hindi 720p Untouched True HDTV 720p x264 AAC - 1.4GB [MovCr].mkv (1.4 GB)
  • www.MovCR.com.txt (0.0 KB)

Comments

Code:

  • udp://tracker.openbittorrent.com:80/announce
  • udp://tracker.publicbt.com:80/announce
  • udp://tracker.torrent.eu.org:451/announce
  • http://t.nyaatracker.com:80/announce
  • udp://tracker.doko.moe:6969/announce
  • http://asnet.pw:2710/announce
  • udp://thetracker.org:80/announce
  • http://tracker.tfile.co:80/announce
  • http://pt.lax.mx:80/announce
  • udp://santost12.xyz:6969/announce
  • http://tracker.bt-hash.com:443/announce
  • udp://bt.xxx-tracker.com:2710/announce
  • udp://tracker.vanitycore.co:6969/announce
  • udp://zephir.monocul.us:6969/announce
  • http://grifon.info:80/announce
  • http://retracker.spark-rostov.ru:80/announce
  • http://tr.kxmp.cf:80/announce
  • http://tracker.city9x.com:2710/announce
  • udp://bt.aoeex.com:8000/announce
  • http://tracker.tfile.me:80/announce
  • udp://tracker.tiny-vps.com:6969/announce
  • http://retracker.telecom.by:80/announce
  • http://tracker.electro-torrent.pl:80/announce
  • udp://tracker.tvunderground.org.ru:3218/announce
  • udp://tracker.halfchub.club:6969/announce
  • udp://retracker.nts.su:2710/announce
  • udp://wambo.club:1337/announce
  • udp://tracker.dutchtracking.com:6969/announce
  • udp://tc.animereactor.ru:8082/announce
  • udp://tracker.justseed.it:1337/announce
  • udp://tracker.leechers-paradise.org:6969/announce
  • udp://tracker.opentrackr.org:1337/announce
  • http://open.kickasstracker.com:443/announce
  • udp://tracker.coppersurfer.tk:6969/announce
  • udp://open.stealth.si:80/announce
  • http://retracker.mgts.by:80/announce
  • http://retracker.bashtel.ru:80/announce
  • udp://inferno.demonoid.pw:3418/announce
  • udp://tracker.cypherpunks.ru:6969/announce
  • udp://tracker.cyberia.is:6969/announce
  • http://tracker.devil-torrents.pl:80/announce
  • udp://tracker2.christianbro.pw:6969/announce
  • udp://retracker.lanta-net.ru:2710/announce
  • udp://tracker.internetwarriors.net:1337/announce
  • udp://ulfbrueggemann.no-ip.org:6969/announce
  • http://torrentsmd.eu:8080/announce
  • udp://peerfect.org:6969/announce
  • udp://tracker.swateam.org.uk:2710/announce
  • http://ns349743.ip-91-121-106.eu:80/announce
  • http://torrentsmd.me:8080/announce
  • http://agusiq-torrents.pl:6969/announce
  • http://fxtt.ru:80/announce
  • udp://tracker.vanitycore.co:6969/announce
  • udp://explodie.org:6969