$5.99 or less | Episode n° 8 | GUARDIANS of the GALAXY: Complete Season 2 S02 1080p Web-DL x264 26 minutesBruce Greenwood | George Sidney | LEER MAS

Breaking Bad (2008) Season 4 S04 + Extras (1080p BluRay x265 HEVC...

  • Category TV
  • Type HEVC/x265
  • Language English
  • Total size 22.3 GB
  • Uploaded By QxR
  • Downloads 163
  • Last checked 21 minutes ago
  • Date uploaded 21 hours ago
  • Seeders 21
  • Leechers 40

Infohash : 1473FCEAC60A1D4F63D088360F1274302E28B5EF





Media Information

Code:

General
Format : Matroska
Format version : Version 4 / Version 2
File size : 1.40 GiB
Duration : 47 min 11 s
Overall bit rate : 4 254 kb/s
Encoded date : UTC 2018-05-19 16:05:10
Writing application : mkvmerge v20.0.0 ('I Am The Sun') 64-bit
Writing library : libebml v1.3.5 + libmatroska v1.4.8
Writing frontend : StaxRip v1.7.0.6

Video
ID : 1
Format : HEVC
Format/Info : High Efficiency Video Coding
Format profile : Main [email protected]@Main
Codec ID : V_MPEGH/ISO/HEVC
Duration : 47 min 11 s
Bit rate : 3 704 kb/s
Width : 1 920 pixels
Height : 1 080 pixels
Display aspect ratio : 16:9
Frame rate mode : Constant
Frame rate : 23.976 (24000/1001) FPS
Color space : YUV
Chroma subsampling : 4:2:0
Bit depth : 10 bits
Bits/(Pixel*Frame) : 0.075
Stream size : 1.22 GiB (87%)
Writing library : x265 2.7+348-0968a46d6ba4:[Windows][MSVC 1900][64 bit] 10bit
Encoding settings : cpuid=1111039 / frame-threads=4 / numa-pools=16 / wpp / no-pmode / no-pme / no-psnr / no-ssim / log-level=2 / input-csp=1 / input-res=1920x1080 / interlace=0 / total-frames=67896 / level-idc=0 / high-tier=1 / uhd-bd=0 / ref=5 / no-allow-non-conformance / no-repeat-headers / annexb / no-aud / no-hrd / info / hash=0 / no-temporal-layers / open-gop / min-keyint=23 / keyint=250 / gop-lookahead=0 / bframes=8 / b-adapt=2 / b-pyramid / bframe-bias=0 / rc-lookahead=80 / lookahead-slices=4 / scenecut=40 / radl=0 / no-intra-refresh / ctu=64 / min-cu-size=8 / no-rect / no-amp / max-tu-size=32 / tu-inter-depth=1 / tu-intra-depth=1 / limit-tu=0 / rdoq-level=2 / dynamic-rd=0.00 / no-ssim-rd / signhide / no-tskip / nr-intra=0 / nr-inter=0 / no-constrained-intra / no-strong-intra-smoothing / max-merge=3 / limit-refs=3 / limit-modes / me=3 / subme=5 / merange=57 / temporal-mvp / weightp / weightb / no-analyze-src-pics / deblock=-3:-3 / no-sao / no-sao-non-deblock / rd=4 / no-early-skip / no-rskip / no-fast-intra / no-tskip-fast / no-cu-lossless / no-b-intra / no-splitrd-skip / rdpenalty=0 / psy-rd=1.50 / psy-rdoq=2.00 / no-rd-refine / no-lossless / cbqpoffs=0 / crqpoffs=0 / rc=crf / crf=19.0 / qcomp=0.60 / qpstep=4 / stats-write=0 / stats-read=0 / ipratio=1.40 / pbratio=1.30 / aq-mode=3 / aq-strength=1.00 / cutree / zone-count=0 / no-strict-cbr / qg-size=32 / no-rc-grain / qpmax=69 / qpmin=0 / no-const-vbv / sar=0 / overscan=0 / videoformat=5 / range=0 / colorprim=2 / transfer=2 / colormatrix=2 / chromaloc=0 / display-window=0 / max-cll=0,0 / min-luma=0 / max-luma=1023 / log2-max-poc-lsb=8 / vui-timing-info / vui-hrd-info / slices=1 / no-opt-qp-pps / no-opt-ref-list-length-pps / no-multi-pass-opt-rps / scenecut-bias=0.05 / no-opt-cu-delta-qp / no-aq-motion / no-hdr / no-hdr-opt / no-dhdr10-opt / no-idr-recovery-sei / analysis-reuse-level=5 / scale-factor=0 / refine-intra=0 / refine-inter=0 / refine-mv=0 / no-limit-sao / ctu-info=0 / no-lowpass-dct / refine-mv-type=0 / copy-pic=1 / max-ausize-factor=1.0 / no-dynamic-refine / no-single-sei
Default : Yes
Forced : No

Audio #1
ID : 2
Format : AAC
Format/Info : Advanced Audio Codec
Format profile : LC
Codec ID : A_AAC
Duration : 47 min 11 s
Bit rate : 411 kb/s
Channel(s) : 6 channels
Channel positions : Front: L C R, Side: L R, LFE
Sampling rate : 48.0 kHz
Frame rate : 46.875 FPS (1024 spf)
Compression mode : Lossy
Delay relative to video : 20 ms
Stream size : 139 MiB (10%)
Language : English
Default : No
Forced : No

Audio #2
ID : 3
Format : AAC
Format/Info : Advanced Audio Codec
Format profile : LC
Codec ID : A_AAC
Duration : 47 min 11 s
Bit rate : 127 kb/s
Channel(s) : 2 channels
Channel positions : Front: L R
Sampling rate : 48.0 kHz
Frame rate : 46.875 FPS (1024 spf)
Compression mode : Lossy
Delay relative to video : 9 ms
Stream size : 42.8 MiB (3%)
Language : English
Default : No
Forced : No

Subtitle
ID : 4
Format : PGS
Muxing mode : zlib
Codec ID : S_HDMV/PGS
Codec ID/Info : Picture based subtitle format used on BDs/HD-DVDs
Duration : 44 min 53 s
Bit rate : 21.5 kb/s
Count of elements : 764
Stream size : 6.89 MiB (0%)
Language : English
Default : No
Forced : No

Menu
00:00:00.000 : en:00:00:00.000
00:04:47.829 : en:00:04:47.829
00:16:28.613 : en:00:16:28.613
00:26:12.404 : en:00:26:12.404
00:37:31.458 : en:00:37:31.458
00:46:27.785 : en:00:46:27.785

Source Information

Code:

Release:
Breaking.Bad.S04.1080p.BluRay.DTSMA.AVC.Remux-BTN


Note From QxR:

Quote:

Whilst we are happy for our releases to be re-posted on a platform we aren't on, please do so in an 'as-is' format. We ask that you do not create a new torrent, include all descriptions you see above including the QxR logo, tags, notes and screenshots. If you'd like to become a permanent poster on a website we don't post to, feel free to get in contact with a QxR member.


Files:

Breaking Bad (2008) Season 4 S04 + Extras (1080p BluRay x265 HEVC 10bit AAC 5.1 Silence)
  • Breaking Bad (2008) - S04E13 - Face Off (1080p BluRay x265 Silence).mkv (1.9 GB)
  • Breaking Bad (2008) - S04E02 - Thirty-Eight Snub (1080p BluRay x265 Silence).mkv (1.2 GB)
  • Breaking Bad (2008) - S04E03 - Open House (1080p BluRay x265 Silence).mkv (1.2 GB)
  • Breaking Bad (2008) - S04E04 - Bullet Points (1080p BluRay x265 Silence).mkv (1.2 GB)
  • Breaking Bad (2008) - S04E05 - Shotgun (1080p BluRay x265 Silence).mkv (1.3 GB)
  • Breaking Bad (2008) - S04E06 - Cornered (1080p BluRay x265 Silence).mkv (1.2 GB)
  • Breaking Bad (2008) - S04E07 - Problem Dog (1080p BluRay x265 Silence).mkv (1.4 GB)
  • Breaking Bad (2008) - S04E08 - Hermanos (1080p BluRay x265 Silence).mkv (1.2 GB)
  • Breaking Bad (2008) - S04E09 - Bug (1080p BluRay x265 Silence).mkv (1.4 GB)
  • Breaking Bad (2008) - S04E10 - Salud (1080p BluRay x265 Silence).mkv (1.6 GB)
  • Breaking Bad (2008) - S04E11 - Crawl Space (1080p BluRay x265 Silence).mkv (1.5 GB)
  • Breaking Bad (2008) - S04E12 - End Times (1080p BluRay x265 Silence).mkv (1.5 GB)
  • Breaking Bad (2008) - S04E01 - Box Cutter (1080p BluRay x265 Silence).mkv (1.4 GB)
  • Featurettes
    • Better Call Saul 01.mkv (10.4 MB)
    • Better Call Saul 02.mkv (11.6 MB)
    • Car Filming Time Lapse.mkv (15.0 MB)
    • Cast Chemistry.mkv (93.5 MB)
    • Color Me Bad.mkv (76.3 MB)
    • Deleted Scenes
      • Scenes01.mkv (2.1 MB)
      • Scenes02.mkv (6.7 MB)
      • Scenes03.mkv (1.8 MB)
      • Scenes04.mkv (2.0 MB)
      • Scenes05.mkv (8.5 MB)
      • Scenes06.mkv (7.1 MB)
      • Scenes07.mkv (12.2 MB)
      • Scenes08.mkv (13.3 MB)
      • Scenes09.mkv (8.9 MB)
      • Scenes10.mkv (11.6 MB)
      • Scenes11.mkv (1.3 MB)
    • Gag Reel.mkv (16.1 MB)
    • Gale's Karaoke Video.mkv (99.5 MB)
    • Gus Head Cast Time Lapse.mkv (21.5 MB)
    • Gus Kills.mkv (7.6 MB)
    • Inside Breaking Bad
      • A Look at Season Four.mkv (33.3 MB)
      • Box Cutter.mkv (43.1 MB)
      • Bug.mkv (31.7 MB)
      • Bullet Points.mkv (32.9 MB)
      • Cornered.mkv (46.1 MB)
      • Crawl Space.mkv (63.1 MB)
      • Design of the Superlab.mkv (38.6 MB)
      • End Times.mkv (53.5 MB)
      • Face Off.mkv (65.9 MB)
      • Hermanos.mkv (40.5 MB)
      • Jesse's House.mkv (43.6 MB)
      • Open House.mkv (37.9 MB)
      • Problem Dog.mkv (44.8 MB)
      • Salud.mkv (64.6 MB)
      • Shotgun.mkv (49.1 MB)
      • The Car Explosion.mkv (100.3 MB)
      • The Look of the Superlab.mkv (36.7 MB)
      • Thirty-Eight Snub.mkv (41.0 MB)
      • Tour of the Superlab.mkv (69.2 MB)
      • Unanswered Questions.mkv (31.2 MB)
      • Walt and Jesse's Fight.mkv (42.3 MB)
    • Inside the Explosive Finale.mkv (384.2 MB)
    • Podcasts Encoded
      • Podcast 01.mkv (124.1 MB)
      • Podcast 02.mkv (109.6 MB)
      • Podcast 03.mkv (135.6 MB)
      • Podcast 04.mkv (120.9 MB)
      • Podcast 05.mkv (117.2 MB)
      • Podcast 06.mkv (130.2 MB)
      • Podcast 07.mkv (115.2 MB)
      • Podcast 08.mkv (124.8 MB)
      • Podcast 09.mkv (130.4 MB)
      • Podcast 10.mkv (245.4 MB)
      • Podcast 11.mkv (208.8 MB)
      • Podcast 12.mkv (164.9 MB)
      • Podcast 13.mkv (238.0 MB)
    • The Invisible Driver.mkv (77.7 MB)
    • The Real Family of Breaking Bad.mkv (107.0 MB)
    • The Science of a Hit Show.mkv (92.1 MB)
    • The Sets of Breaking Bad.mkv (123.8 MB)
    • The White House Tour.mkv (47.8 MB)
    • Tour of the Superlab.mkv (45.6 MB)

Comments

Code:

  • udp://tracker.coppersurfer.tk:6969/announce
  • udp://tracker.zer0day.to:1337/announce
  • udp://tracker.opentrackr.org:1337/announce
  • udp://tracker.torrent.eu.org:451/announce
  • udp://tracker.ilibr.org:6969/announce
  • udp://tracker.leechers-paradise.org:6969/announce
  • udp://p4p.arenabg.com:1337/announce
  • udp://tracker.internetwarriors.net:1337/announce