Generation Kill | The Last Ship saison 2 streaming | Honey X Honey DropsEvan Rachel Wood | OST The Pink Panther Listen! | Announcements

18+ Skybound 2017 Movies 720p HDRip x264 5.1 ESubs with Sample ☻r...

  • Category Movies
  • Type HD
  • Language English
  • Total size 769.9 MB
  • Uploaded By nehalpuja
  • Downloads 187
  • Last checked 8 minutes ago
  • Date uploaded 13 hours ago
  • Seeders 0
  • Leechers 72

Infohash : 5EB51FD61D40EB9C2AC9C6CB3C68BF49A2A3F264

18+ Skybound 2017 Movies 720p HDRip x264 5.1 ESubs with Sample ☻rDX☻
===============================================================================================

SCREEN SHOTS:



or

http://iphonehosting.eu/2018/5/a/hotel/1.html

File size : 760 MiB
Duration : 1 h 20 min
Overall bit rate : 1 313 kb/s
Movie name : 18+ Skybound 2017 Movies 720p HDRip x264 5.1 ESubs ☻rDX☻

Video
ID : 2
Format : AVC
Format/Info : Advanced Video Codec
Format profile : [email protected]
Format settings, CABAC : Yes
Format settings, ReFrames : 4 frames
Codec ID : V_MPEG4/ISO/AVC
Duration : 1 h 20 min
Bit rate : 928 kb/s
Width : 1 280 pixels
Height : 528 pixels
Display aspect ratio : 2.40:1
Original display aspect ratio : 2.40:1
Frame rate mode : Constant
Frame rate : 23.976 (24000/1001) FPS
Color space : YUV
Chroma subsampling : 4:2:0
Bit depth : 8 bits
Scan type : Progressive
Bits/(Pixel*Frame) : 0.057
Stream size : 523 MiB (69%)
Title : ☻rDX☻
Writing library : x264

Audio
ID : 1
Format : AC-3
Format/Info : Audio Coding 3
Mode extension : CM (complete main)
Format settings, Endianness : Big
Codec ID : A_AC3
Duration : 1 h 20 min
Bit rate mode : Constant
Bit rate : 384 kb/s
Channel(s) : 6 channels
Channel positions : Front: L C R, Side: L R, LFE
Sampling rate : 48.0 kHz
Frame rate : 31.250 FPS (1536 spf)
Bit depth : 16 bits
Compression mode : Lossy
Delay relative to video : -21 ms
Stream size : 222 MiB (29%)
Title : ☻rDX☻
Language : English
Default : No
Forced : No

Text
ID : 3
Format : UTF-8
Codec ID : S_TEXT/UTF8
Codec ID/Info : UTF-8 Plain Text
Title : ☻rDX☻
Language : English
Default : Yes
Forced : No



IMDB : http://www.imdb.com/title/tt2560792

Files:

18+ Skybound 2017 Movies 720p HDRip x264 5.1 ESubs with Sample ☻rDX☻
  • Sample ~ 18+ Skybound 2017 Movies 720p HDRip x264 5.1 ESubs ☻rDX☻.mkv (9.5 MB)
  • 18+ Skybound 2017 Movies 720p HDRip x264 5.1 ESubs ☻rDX☻.mkv (760.4 MB)

There are currently no comments. Feel free to leave one :)

Code:

  • udp://tracker.coppersurfer.tk:6969/announce
  • udp://tracker.leechers-paradise.org:6969/announce
  • udp://tracker.pirateparty.gr:6969/announce
  • udp://eddie4.nl:6969/announce
  • udp://tracker.zer0day.to:1337/announce
  • udp://9.rarbg.me:2710/announce
  • udp://9.rarbg.to:2710/announce
  • udp://public.popcorn-tracker.org:6969/announce
  • udp://p4p.arenabg.ch:1337/announce
  • udp://tracker.vanitycore.co:6969/announce
  • udp://ipv4.tracker.harry.lu:80/announce
  • udp://tracker.opentrackr.org:1337/announce
  • udp://p4p.arenabg.com:1337/announce
  • udp://shadowshq.yi.org:6969/announce