Broery Marantika - Angin Malam | Toshishita no Otoko | Cardi B, Bad Bunny & J BalvinPop/Pop Ballad | Развлекательные | Consumer Reports – July 2018 - True PDF - zeke23[TGx]

18+ The Lost Viking 2018 UNCENSORED Movies 720p HDRip x264 5.1 wi...

  • Category Movies
  • Type HD
  • Language English
  • Total size 1,015.8 MB
  • Uploaded By nehalpuja
  • Downloads 82
  • Last checked 1 hour ago
  • Date uploaded 6 hours ago
  • Seeders 0
  • Leechers 76

Infohash : 0EC4119C04225AA60159A553C0B8812119460FC8

18+ The Lost Viking 2018 UNCENSORED Movies 720p HDRip x264 5.1 with Sample ☻rDX☻
===============================================================================================

SCREEN SHOTS:



or

http://iphonehosting.eu/2018/5/a/homeloans/1.html

File size : 1 008 MiB
Duration : 1 h 46 min
Overall bit rate : 1 320 kb/s
Movie name : 18+ The Lost Viking 2018 UNCENSORED Movies 720p HDRip x264 5.1 ☻rDX☻

Video
ID : 2
Format : AVC
Format/Info : Advanced Video Codec
Format profile : [email protected]
Format settings, CABAC : Yes
Format settings, ReFrames : 4 frames
Codec ID : V_MPEG4/ISO/AVC
Duration : 1 h 46 min
Bit rate : 935 kb/s
Width : 1 280 pixels
Height : 532 pixels
Display aspect ratio : 2.40:1
Frame rate mode : Constant
Frame rate : 23.976 (24000/1001) FPS
Color space : YUV
Chroma subsampling : 4:2:0
Bit depth : 8 bits
Scan type : Progressive
Bits/(Pixel*Frame) : 0.057
Stream size : 694 MiB (69%)
Title : ☻rDX☻
Writing library : x264

Audio
ID : 1
Format : AC-3
Format/Info : Audio Coding 3
Mode extension : CM (complete main)
Format settings, Endianness : Big
Codec ID : A_AC3
Duration : 1 h 46 min
Bit rate mode : Constant
Bit rate : 384 kb/s
Channel(s) : 6 channels
Channel positions : Front: L C R, Side: L R, LFE
Sampling rate : 48.0 kHz
Frame rate : 31.250 FPS (1536 spf)
Bit depth : 16 bits
Compression mode : Lossy
Delay relative to video : -21 ms
Stream size : 293 MiB (29%)
Title : ☻rDX☻
Default : Yes
Forced : No



IMDB : http://www.imdb.com/title/tt6413868

Files:

18+ The Lost Viking 2018 UNCENSORED Movies 720p HDRip x264 5.1 with Sample ☻rDX☻
  • Sample ~ 18+ The Lost Viking 2018 UNCENSORED Movies 720p HDRip x264 5.1 ☻rDX☻.mkv (8.0 MB)
  • 18+ The Lost Viking 2018 UNCENSORED Movies 720p HDRip x264 5.1 ☻rDX☻.mkv (1,007.8 MB)

There are currently no comments. Feel free to leave one :)

Code:

  • udp://tracker.coppersurfer.tk:6969/announce
  • udp://tracker.leechers-paradise.org:6969/announce
  • udp://tracker.pirateparty.gr:6969/announce
  • udp://eddie4.nl:6969/announce
  • udp://tracker.zer0day.to:1337/announce
  • udp://9.rarbg.me:2710/announce
  • udp://9.rarbg.to:2710/announce
  • udp://public.popcorn-tracker.org:6969/announce
  • udp://p4p.arenabg.ch:1337/announce
  • udp://tracker.vanitycore.co:6969/announce
  • udp://ipv4.tracker.harry.lu:80/announce
  • udp://tracker.opentrackr.org:1337/announce
  • udp://p4p.arenabg.com:1337/announce
  • udp://shadowshq.yi.org:6969/announce