HD Venus in Furs 1969 | #The Basement full movie fmovies | Chieko BaishôFocus - Double Exposure. | Dunkirk (2017) – HD BluRay 720p e 1080p Dublado e Dual Áudio | L'appel du grand Ouest américain

The Snowman (2017) 720p BluRay x264 ORG Hindi PGS English Subtitl...

  • Category Movies
  • Type HD
  • Language English
  • Total size 905.9 MB
  • Uploaded By abuhamza420
  • Downloads 1238
  • Last checked 1 hour ago
  • Date uploaded 12 hours ago
  • Seeders 1
  • Leechers 117

The Snowman

CrimeDramaHorrorMysteryThriller

Detective Harry Hole investigates the disappearance of a woman whose pink scarf is found wrapped around an ominous looking snowman.

Infohash : 04FB48519632573CB0EB9F37223C3E0D469DC56F







The Snowman (2017) 720p BluRay x264 Dual ORG Hindi PGS English Subtitle English Audio - MoviesMB


MoviesMB.Com


Downloadhub.Icu


Buy PowerFull VPS And RDP From RDPArena.com

Use Coupon EXTRADESI get 30% Discount on All RDP and VPS Plans






Sample


Video
ID                                       : 1
Format                                   : AVC
Format/Info                              : Advanced Video Codec
Format profile                           : [email protected]
Format settings                          : CABAC / 4 Ref Frames
Format settings, CABAC                   : Yes
Format settings, RefFrames               : 4 frames
Codec ID                                 : V_MPEG4/ISO/AVC
Duration                                 : 1 h 59 min
Bit rate                                 : 900 kb/s
Width                                    : 1 280 pixels
Height                                   : 682 pixels
Display aspect ratio                     : 1.85:1
Frame rate mode                          : Constant
Frame rate                               : 23.976 (24000/1001) FPS
Color space                              : YUV
Chroma subsampling                       : 4:2:0
Bit depth                                : 8 bits
Scan type                                : Progressive
Bits/(Pixel*Frame)                       : 0.043
Stream size                              : 768 MiB (86%)
Default                                  : Yes
Forced                                   : No

Audio
ID                                       : 2
Format                                   : AAC
Format/Info                              : Advanced Audio Codec
Format profile                           : LC
Codec ID                                 : A_AAC-2
Duration                                 : 1 h 59 min
Bit rate                                 : 132 kb/s
Channel(s)                               : 2 channels
Channel positions                        : Front: L R
Sampling rate                            : 48.0 kHz
Frame rate                               : 46.875 FPS (1024 SPF)
Compression mode                         : Lossy
Delay relative to video                  : -43 ms
Stream size                              : 115 MiB (13%)
Default                                  : Yes
Forced                                   : No

Text #1
ID                                       : 3
Format                                   : PGS
Muxing mode                              : zlib
Codec ID                                 : S_HDMV/PGS
Codec ID/Info                            : Picture based subtitle format used on BDs/HD-DVDs
Duration                                 : 1 h 58 min
Bit rate                                 : 19.9 kb/s
Count of elements                        : 2054
Stream size                              : 16.8 MiB (2%)
Language                                 : Hindi
Default                                  : Yes
Forced                                   : No

Text #2
ID                                       : 4
Format                                   : PGS
Muxing mode                              : zlib
Codec ID                                 : S_HDMV/PGS
Codec ID/Info                            : Picture based subtitle format used on BDs/HD-DVDs
Duration                                 : 1 h 53 min
Bit rate                                 : 29.1 kb/s
Count of elements                        : 2396
Stream size                              : 23.6 MiB (3%)
Language                                 : English
Default                                  : No
Forced                                   : No










The Snowman (2017) 720p BluRay x264 Dual ORG Hindi PGS English Subtitle English Audio - MoviesMB












Files:

The Snowman (2017) 720p BluRay x264 Dual ORG Hindi PGS English Subtitle English Audio - MoviesMB
  • The Snowman (2017) 720p BluRay x264 Dual ORG Hindi PGS English Subtitle English Audio - MoviesMB.mkv (897.8 MB)
  • Sample - The Snowman (2017) 720p BluRay x264 Dual ORG Hindi PGS English Subtitle English Audio - MoviesMB (1).mkv (8.0 MB)
  • Buy RDP - RDPArena.com.url (0.1 KB)
  • Downloadhub.icu Free 300MB Movies Download.url (0.1 KB)
  • Download Latest Movies From MoviesMb.Com.url (0.1 KB)

There are currently no comments. Feel free to leave one :)

Code:

  • UDP://TRACKER.LEECHERS-PARADISE.ORG:6969/ANNOUNCE
  • UDP://TRACKER.COPPERSURFER.TK:6969/ANNOUNCE
  • UDP://TRACKER.OPENTRACKR.ORG:1337/ANNOUNCE
  • udp://9.rarbg.to:2710/announce
  • UDP://EDDIE4.NL:6969/ANNOUNCE
  • udp://inferno.demonoid.pw:3391/announce